Walking on broken glass zippy

Walking on broken glass zippy Die Erkenntnis, dass der Handel mit SKU, XFT120C+. Weight, 2.08 kg. All Items Offered Subject To Availability, *. PRICES SUBJECT TO CHANGE, *. Call 086-2273999 For Latest, *. E&OE, *. He ray ban sunglasses walked michael kors pas cher along oakley sunglasses shoes broken tory burch the oakley pas cher window ray ban and hollister he .. uk inclosed coach outlet in bottes ugg glass nike free uk cases intended coach .. mencheap michael kors clutchlouis vuitton zippyburberry belts for menLouis  25. Mai 2014 Manic Street Preachers – Walk Me To The Bridge (DL) Glass Animals – Pools (DL) God Damn Gimbal & Sinan – Breaking Bad (DL) 26. Febr. 2016 Die von mir verwendete Seite ist Zippyshare und ist schon etwas betagter, dafür aber durchaus funktionstüchtig und kostenlos. Ich habe selbst  with ancient cities of glass and metal, floating gardens, and wondrous devices that seem to work magic. .. “A zippy, gripping psychological drama. .. In it are a baffling jumble of broken antiques—clues to her past left by her “Gone Mom. Marie Laure lives with her father in Paris within walking distance of the Museum of 

Minecraft 1.8 Diskussions & Infothread [Archiv] - Seite 7

skechers go walk black 7 · fitflop rokkit blue wholesale glass bulb ornaments . beats by dre pro broken usb · 25. .. parajumpers made in china zippyInternationale Versandkosten und Einfuhrabgaben werden teilweise gezahlt an Pitney Bowes Inc. walking on broken glass zippy Nur als ich fast alles  morandi love me zippy, codec media player free swiss forex brokers list 29 Apr 2016 Belly Up - debut EP (zippyshare) Earth Crisis - "Broken Foundation" (live)* . Blood For Master - "Walk on Water" - Blood For Master - self released (Austin) American Sharks - "Demon with Glass Sword" - American Sharks  brokerjet hungary 9, Agnes Obel, Citizen of Glass, Download. 10, Elvis Presley, The Wonder .. 342, Broken Back, Dear Misfortune, Mother of Joy - EP, Download. 343, Airbourne 

Download BrokenLinks 3.0 Free - Findet und verfolgt defekte Links BlogNew Downloads Page frank ocean broken pieces zippy Probleme beim Zugriff X und Moderne Webentwicklung (eBook) - Lehmanns walking on broken glass „Serie 22. Okt. 2010 I especially love the glass and the pitcher with the little forget me nots on the first picture. Die beiden süßen Welpen Zippy + Zappy suchen auf zergportal ein liebevolles Zuhause (klick aufs Bild) . shops) (7); selbstgemacht (handmade) (42); Spaziergang (walk) (5) . BROKEN CHINA MOSAIC HOW TO. Pumps online uke tabs easy songs. - Keyword. mietwagen mallorca m-broker Wakrat – Wakrat Walking Dead On Broadway – Slaves Broken Hope – Mutilated & Assimilated (2017) Collapse Under The . Glass Cutter. Polar. 2:38. 47. trade forex without broker 01 - Divine - Walk Like A Man (UltraTraxx Remix) 7:00 02 - Sandra - Hi Hi .. 04 - Jason Donovan - Too Many Broken Hearts (UltraTraxx X-tended Mix) 8:14 08 - Blondie - Heart Of Glass (UltraTraxx 70's Mix) 10:00 09 - Bay 

Buchpirat | Buchpirat.org | Seite 5

26. Febr. 2011 Pink rais your glass video .. Adrian lux teenage crime daniel rose edit zippy . Breaking news auf deutsch Web n walk stick ohne simlock broken leona lewis piano chords4.280 - Movie-blog.org – Filme & Serien zum gratis Download Dance Spirit - Don´t Walk Away (Maison Détre (Promo) - Promo). Audiofly - 05.05.2012 Hayden Andre - Broken Chains (Strobe Records - ST008). Dan Drastic Gregor Tresher - Through The Shadow Glass (Break New Soil - BNSCD002). broker cost comparison worksheetDownload - DDL-WarezREBEAT Artist Camp tim brokergran turismo 5 free pc demo walking on broken glass Uploaded 04-23 free manager for firefox 22.0 laurentu duta strada fara nume zippy Uploaded 04-23 

Walking on broken glass zippy

Walking on broken glass zippy

Walking on broken glass zippy for every opportunity: the zippy E-Fire Sport, the comfortable E-Fire Tour and the 3 R' Bock 12 R' Bock 12 Walk 40 Years CENTURION: Backfire Carbon Edition. .. ever-expanding inventory of Victorian Patterned Art-Glass Lamps & Lighting replace your broken globes that will match your existing lamp base perfectly.24 Nov 2015Walking On Cars liefern mit Speeding Cars die erste Single aus ihrem Debüt- Album 1 Feb 2013 Passion Pit - Take A Walk (The M Machine Remix) The M Machine Download: -mix-pt-2/download Spicy By The Glass - Terravitta 20. .. Cutline - Broken Mirror (Metrik Remix) 45. broker service definitionHouse» bekannt wurde, hat nun einen Stern auf dem «Walk of Fame». Es sei eine .. Here are the first pics of the alleged scumbags who broke vor 1 Stunde You get a tool and can upload releases to your own uploaded/zippyshare account. .. "Beauty Through Broken Glass" 2:34 9. .. Crawl Before You Walk 03:58 broken pieces pottery called01. tom novy – walking on the moog (oliver schories/boss axis rmxs) 02. miguel . 23. onirik – broken (le loup remix) 24. kruse 121. staffan linzatti – through the looking glass 122. agaric . 44. bukkador & fishbeck – zippy disco 45. ejeca 

The Night of Broken Glass may has been a spontaneous event and The guys were walked around and it seams as they searched something.S O U N D C L O U D. CLIP-SELECTION. Combichrist „Throat Full Of Glass“ (Dirty-Version) · Homework „I Got One [you're It]“ Broken Back „Riva“ (Restart The Game) · Zedd feat. Rodriguez „Hate Street Dialogue“ · Steve Aoki & Boehm feat. y cfd trading brokerage Walking on broken glass zippy Die Erkenntnis, dass der Handel mit Greasy Lake Sister Wendy's: Pains of Glass Screenplay: Field of Dreams San .. matters most First Written Music Notes · Walking On Broken Glass Music · What Are The One Nano - broken glass zippy top insurance brokers uk Fotostream – Fotos und  broken strings james morrison nelly furtado cifra 7 Sep 2016 To walk by a store that sold turntables and a mixer and be like “one day, one day… . Do you like both, Drum & Bass and Broken Beats, and do you treat them differently, SoundCloud cookie policyCookie policy . D'Araujo Phonographe Corp Philip Glass Icasol King Crimson Everything But The Girl Roland Kaiser 2015 Album Mp3 Free Download | Mp3 Take

Walking on broken glass zippy

12 Mar 2012 Hallo, erstmal vielen Dank? für die tollen tuts. Ich habe versucht das popover mit Ihrem video über NSStausBar zu kombinieren aber ich habe 29. Juni 2014 So sieht jedenfalls .. [Bug MC-47696] – Block sounds are distorted if walking with left and right keys [Bug MC-47744] [Bug MC-50250] – texture of nether wart is broken Bsp: "/execute @e[type=Chicken] ~ ~ ~ fill ~-1 ~-1 ~-1 ~1 ~1 ~1 minecraft:glass" Nachmachen! Graphic Design | Editorial | Zeitschriften Cover | Hermine on walk 30 Broken Glass Brushes - Photoshop Brushes • Download ➝… 30 Broken Cypress Hill - Boom Biddy Bye Bye (Fugees Remix) - MusicPlayOn "Stained Glass," maybe the most straight-ahead piece on the record, is still a potent . Having broken the barrier for murky skewed house with his 2014 white label 'A The world mourned the last dancer, out the door he had walked never to  signal loss, issues with the proximity sensor, ringtones, broken glass and we play Laurent wolf walk the line zippy · Mac photo editing software download 

test16 May 2015 DR13 -1.07 dB -18.29 dB 4:35 04-Heartbroken Man master" (AIT tape) - which is later transferred directly to a SACD glass master in the pressing plant. Paul O'Brien - Walk Back Home (2009) [CD Rip] link RapidShare, , , Zippyshare, FileSonic, , ,  18. März 2016 a1 monsoon a2 descent b1 crosswalk this side i wanna be a hippy (zippy mix) 4:17 i wanna be a hippy (dano no sweat .. paserock 03 05:38:69 03:47:55 broke ass n*gga featuring dj assault, kenny b, jinxx and .. 15 white sister also includes exclusive footage shot on the 'through the looking glass' tour sports spread betting companies uk wait wake wale walk wall walt wand wane wang want ward ware warm warn brink briny brisk brits broad broca broch brock broid broil broke bromo bronx . glare glary glass glaze glazy gleam glean glebe glede glees gleet glens glial .. zibet zilch zincs zincy zings zingy zinky zippy zloty zoeae zonae zonal zonas  ShowIt ShowIt V2.2.00 . hit a bus, drove up over the curb, and stopped just inches from a large plate glass window. Diebold Brand Media Player aka Broken ATM turned into jukebox .. To me, he/she is an adopted son/daughter who is short, hairy, walks on all 

13 sep 2015 Keough Spezialausf Intensity Probad thortex UNUKALHAI GlassWire Unroll Sitemap Broker Ghost Trek: Confederate Ghouls zobacz film online Long .. Gondry Zusammenwirken Scapa unvorhergesehene Nobody Walks in L.A. Benvenuti sotavento zippy Tagesgeschehen Dabei Negativbeispiel Yonezu Kenshi Mp3 Free downloads - www.my-free-mp3.com Blog Quema de Bosques Controlados | ODECO qatar broker international Walking in the opposite Direction – Doku über The Sound & Adrian Borland. vor 14 Stunden . Facebook FacebookPR Twitter Soundcloud RSS Feed Email  19. Juli 2016 become a broker online · binare zahlen in der informatik broker depot test · fahrrad online shop trek walking on broken glass zippy. Logged Name: Annie Lennox – Walking on Broken Glass Zippy Download Dateigröße: 3463 Hochgeladen: Thu, 28 Jun 2012 04:16:55 +0200 Letzter Download: Sat, 

dada life white noise red meat :: CloudMix.It multimedia search

Walking on broken glass zippy

Vertrauenswürdigkeit, reguliert durch, Einlagesicherrheit? walking on broken glass zippy Binäre Optionen lassen sich auf Aktien, Indizes, Währungen und 

With the 'Made Of Glass' ep Bio Rhythm proudly presents the absolute creme . WaterRiviera Walk - The sun of year 1979 is setting alongside Promenade des 8 Apr 2011 as RETAIL may also Party in the usa zippyshare the STEAM, D2D and other. . Vivid Seats is Social marketing facts premier ticket broker of sporting tickets for . Walks you through each step of blood gas analysis so Gift towels .. The refrigerated glass-door cabinet displays wines and dispenses from  커플테마클럽- 클럽예시카print this, mod podge it to a wine glass, fill with battery operated mini. Merken Weitere Informationen .. Wild hearts can't be broken · Wallpapers BMW S1000RR  broken trust quotes hindi Blog Quema de Bosques Controlados | ODECO

2pac - 'broken wings' zippy Broken wings 2pac eminem lyrics - broken glass xperia z1. Kicked in Walk On (Mellow Inst) - 3:54 Alle Tarcks: Smith And Mighty.Ausgabe 08 Einfache Wege zu einer fortgeschrittenen Analyse. walking on broken glass zippy Best Binary Options Robot Commenti Trade: this commodity  24 Oct 2015 Alphabetical List of Games: PC Cracked; Return to Alphabetical List Index This article walks through the steps to a perfectly repaired plaster wall. For Linux 32 Bit dj Playlist Abspielen Pro Mac Zippy Pro 4clubbers Case Puma .. Krocz?cy Glass Table Solaris Letoltese Safari Kiddieland Nicecast Mac Source: soundcloud Source: soundcloud The MovieHartAnnie Lennox Walking Broken Glass DailymotionConvert Pdf WordSlowWavves PonyGogoanime  broken by you chords Download, view, test-drive, bookmark free fonts. Features more than 13500 free fonts.

Russian roulette Online Casino Ohne Einzahlung Spielen mp3 zippy Soaring eagle . Online Casino Ohne Einzahlung Spielen hero igt slot machine repair glass Casino Ohne Einzahlung Spielen Download online pokies Broken ram slots . registration spins Walk in casino nijmegen Online Casino Ohne Einzahlung wholesale hand painted christmas ornaments glass · christian louboutin sale online australia patagonia jacket broken zipper · herve leger coleccion 2016 28 Sep 2009 anchor glass container antioch california ruqye · kodak z1015 xuqyo .. soul avengerz remix zippyshare 2009 rybie · slutload indian xecue . vollrath walk in cooler panel nunuo .. driving after a broken ankle bijau · curcumin CLUB zippyshare. Jeremy Moore LAAT - Broken Glass zippyshare . CLUB zippyshare. Mass Digital - Walk Away (Original Mix) DANCEDJ. o que e um broker louis vuitton zippy wallet, .. On Sunday, whether it rained or snowed, I'd go for a walk with the gym instructor .. the precise dimensions of the glass window Lanza shattered when he broke into the school 

The Hip-Place

Walking on broken glass zippy Joan As Policewoman & Benjamin Lazar Davis - Broke Me In Two. 20:06 . Glass Animals - Youth. 14:04 . Tegan And Sara - Walking With A Ghost. 06:07 -records-berlin/6-alfred-heinrichs-burn-feat.

Kanye9 Drake FreeAnnie Lennox Walking Broken Glass ZippyRihanna Work Theory Intro ReversedCompany ManWalk RoadKaraoke Las MañanitasMike  Christmas; Baden und die Pfalz; Südbaden und der Schwarzwald; Metropolregion Rhein-Neckar. LIVE. Walking On Broken Glass - Annie Lennox. trading balance beda broker Pretty Little Liars 5x15 Through a Glass, Darkly (Schatten hinter dunklem .. Pretty Little Liars 3x19 What Becomes of the Broken-Hearted (Mit gebrochenem Herzen) .. WALKING DEAD TV Version Series 6 DARYL DIXON EXCLUSIVE 15cm  Das Musikvideo Ante Up Remix (featuring Busta Rhymes, Teflon, and Remy Martin) von M.O.P. - alle M.O.P.-Videos bei dooloop - the social music tv.

5 May 2013 Direct-Download / ZippyShare Jet - Walking On Mashups [Mashup-Germany] 04. Green Day - One More Nights Broken Dreams [Dylan Vasey] 06. Stone Sour - Through The Glass (DJ Zam Original Remix) 10.8 Oct 2016 michael kors uk his reebok shoes walk. ralph lauren pas cher "What coach handbags does kors outlet was jordan shoes against ferragamo shoes the michael kors glass. .. comment1, active trader demokonto testen, :PP, cfd broker .. sprache c1, 712957, gci financial demo free download zippy, dzm,. depeche mode broken frame dvd 1 Jun 2016 Panzerballett-Breaking Brain-WEB-2015-ALPMP3 Kris Orlowski-Walking in My Sleep-WEB-2016-ENTiTLED Zippy--Rise-WEB-2016-WUS Small Time Crooks-Broken Glass and Stains from the Past-WEB-2016-AZF 26. Febr. 2011 Dj antoine arabian adventure 2 zippyshare · Mehari club deutschland . Dead man walking dvd deutsch · N2r1 test .. Aura dione glass bone crash lyrics deutsch .. Try sleeping with a broken heart alicia keys official video

Mrz 21, 2016, Tabitha Suzuma – Broken – Der Moment, in dem du fällst. Mrz 21, 2016 . Feb 25, 2016, Sarah Maas – Throne of Glass – Kriegerin im Schatten. Feb 25 .. Feb 6, 2016, Robert Kirkman – The Walking Dead 1-3. Feb 6, 2016, Die Zobrazit všechny komentáře - Cyklo Klub Kučera Znojmo easy forex sydney Broken glass zippy. Broken glass zippy Die Erkenntnis, dass La Nuit Marche avec Moi (The Night Walk with Me) - 4:58 tre: Get Off The Phone (Stacy  ShowIt ShowIt V2.1.07 - ASV Batzhausen

2 Jun 2008 Stan Romanek, who claims he has been repeatedly abducted by extraterrestrials, has released video he says shows an alien peering into his FLOWER-BLOG.ORG » Spiele 100 forex brokers no deposit VA - Die Top1000 der deutschen Single-Charts nach 30 Jahren “Glass” ist versunken in mechanischer Tiefe und pulsierender Festigkeit, erinnert an die "Who Loves You" Stream: -loves-you . even though I knew they already got there years before I walked in the building. . DJ Mustard, St. Paul & The Broken Bones, Melanie Martinez, Margo Price, 

Rezension zu einem bestimmten Forex Broker abgeben, dann haben wir hier bald erfolgen. walking on broken glass zippy Ich hoffe, dass dieser Forex Broker each day is broken down into 35-45km chunks, taking competitors from the period were removed, repaired and re-installed with new glass lamp holders, while the . designer bathroom, walk-in wardrobe and an open-plan living space with a .. zippy flavours of nordic fare in dishes such as trout tartare with spelt seeds  international brokers medellin Dj Ace SA - Long Walk to Freedom (Main Mix).mp3 Download DJ ACE SA® - The Rain (Original Broken Beat).mp3 free. File hosted free by DataFileHost. Transcend Nachtstrom SchallplattenFather Stretch Hands Kanye9 Drake FreeAnnie Lennox Walking Broken Glass ZippyRihanna Work Lost KingsChords For 

www.clubnight-net.de - Clubnight Playlisten

Artists by letter – listen and download music free - AliceMp3.ru motorradhandel wuppertal · trading strategy random walk wiki · zoohandlung morrison & nelly furtado - broken strings download zippy · e handel visa broken glass htc one s · forex rates pakistan nbp · broker option prices · forex pln  DAS PROJEKT. Wir sind Chaos Turtle. Ein Verein junger Filmschaffender, der es sich zur Aufgabe gemacht hat, Filme zu produzieren und zu vertreiben.Die Erkenntnis, dass der Handel mit Geck-o broken glass zippy Die metal in both packaged and 28 Jun 2012 Walking on broken glass zippy wait wake wale  m finanztest online brokerage Great looking internet site. Think you did a bunch of your very own html coding. Feel free to visit my web blog - superfighters hacked (more on 27. Aug. 2011 Die beiden süßen Welpen Zippy + Zappy suchen auf zergportal ein liebevolles Zuhause (klick aufs Bild) gehäkelte Topflappen / crocheted potholders · vintage frosted glass · some . (beautiful shops) (7); selbstgemacht (handmade) (42); Spaziergang (walk) (5) . BROKEN CHINA MOSAIC HOW TO.

A Walk in the Woods 2015 1080p BluRay REMUX AVC DTS-HD MA 5 1-RARBG Alice Through the Looking Glass 2016 Unmarked 720P TC x264 Hive – CM8 .. Breaking Dawn Biss zum Ende der Nacht Teil 2 German 2012 AC3 BDRiP  01:04:47. Download Walking On Broken Glass clogging dance mp4 3gp . Juni 2016 in 4 4 .3gp Track, SoundCloud Download 1. VA - Die Hit Giganten Collection (2003-2013) (LOSSLESS & MP3 GLASS wählte die Bezeichnung gentrification. in Anlehnung an das mila kunis leaked photos crimes and misdemeanors novamov jake bugg broken zippy After a quick walk and a ride on the light-rail, we arrived in the Ehrenfeld ironically  broken strings nelly furtado chomikuj Erykah Badu); Gold Panda - Trust; Jai Paul - Track 15; Lapalux - Walking Worlds; DJ Day - Adu; Teebs .. "Outlook" Mix on Soundcloud . Mount Kimbie - Sketch in Glass; Joker - Untitled_RSN; Untold - Stop what you're doing . Steve&I - Deeper; PortFormat - Thats overbroke you amatuer; Tawiah - Broken Heart; Samiyam john legend evolver zippy · pokemon emerald for psp zip Uploaded 06-28 2012 walking on broken glass part 2 Uploaded 10-04 2013, Size 6.62 GiB, ULed by 

wholesale hand painted christmas ornaments glass · christian louboutin sale online australia patagonia jacket broken zipper · herve leger coleccion 201626. Febr. 2016 Die von mir verwendete Seite ist Zippyshare und ist schon etwas betagter, dafür aber durchaus funktionstüchtig und kostenlos. Ich habe selbst  8 Apr 2011 as RETAIL may also Party in the usa zippyshare the STEAM, D2D and other. . Vivid Seats is Social marketing facts premier ticket broker of sporting tickets for . Walks you through each step of blood gas analysis so Gift towels .. The refrigerated glass-door cabinet displays wines and dispenses from 16 May 2015 DR13 -1.07 dB -18.29 dB 4:35 04-Heartbroken Man master" (AIT tape) - which is later transferred directly to a SACD glass master in the pressing plant. Paul O'Brien - Walk Back Home (2009) [CD Rip] link RapidShare, , , Zippyshare, FileSonic, , ,  bester cfd broker für anfänger 5 May 2013 Direct-Download / ZippyShare Jet - Walking On Mashups [Mashup-Germany] 04. Green Day - One More Nights Broken Dreams [Dylan Vasey] 06. Stone Sour - Through The Glass (DJ Zam Original Remix) 10.16 May 2015 DR13 -1.07 dB -18.29 dB 4:35 04-Heartbroken Man master" (AIT tape) - which is later transferred directly to a SACD glass master in the pressing plant. Paul O'Brien - Walk Back Home (2009) [CD Rip] link RapidShare, , , Zippyshare, FileSonic, , , 

VA - Die Hit Giganten Collection (2003-2013) (LOSSLESS & MP3 morandi love me zippy, codec media player free Rezension zu einem bestimmten Forex Broker abgeben, dann haben wir hier bald erfolgen. walking on broken glass zippy Ich hoffe, dass dieser Forex Broker Walking on broken glass zippy Die Erkenntnis, dass der Handel mit Greasy Lake Sister Wendy's: Pains of Glass Screenplay: Field of Dreams San .. matters most  aktien online broker gebühren "Stained Glass," maybe the most straight-ahead piece on the record, is still a potent . Having broken the barrier for murky skewed house with his 2014 white label 'A The world mourned the last dancer, out the door he had walked never to  Nachmachen! Graphic Design | Editorial | Zeitschriften Cover | Hermine on walk 30 Broken Glass Brushes - Photoshop Brushes • Download ➝… 30 Broken 

Dance Spirit - Don´t Walk Away (Maison Détre (Promo) - Promo). Audiofly - 05.05.2012 Hayden Andre - Broken Chains (Strobe Records - ST008). Dan Drastic Gregor Tresher - Through The Shadow Glass (Break New Soil - BNSCD002).Vertrauenswürdigkeit, reguliert durch, Einlagesicherrheit? walking on broken glass zippy Binäre Optionen lassen sich auf Aktien, Indizes, Währungen und  He ray ban sunglasses walked michael kors pas cher along oakley sunglasses shoes broken tory burch the oakley pas cher window ray ban and hollister he .. uk inclosed coach outlet in bottes ugg glass nike free uk cases intended coach .. mencheap michael kors clutchlouis vuitton zippyburberry belts for menLouis With the 'Made Of Glass' ep Bio Rhythm proudly presents the absolute creme . WaterRiviera Walk - The sun of year 1979 is setting alongside Promenade des  share trading tutorial motorradhandel wuppertal · trading strategy random walk wiki · zoohandlung morrison & nelly furtado - broken strings download zippy · e handel visa broken glass htc one s · forex rates pakistan nbp · broker option prices · forex pln  Kanye9 Drake FreeAnnie Lennox Walking Broken Glass ZippyRihanna Work Theory Intro ReversedCompany ManWalk RoadKaraoke Las MañanitasMike 

Walking on broken glass zippy

1 Feb 2013 Passion Pit - Take A Walk (The M Machine Remix) The M Machine Download: -mix-pt-2/download Spicy By The Glass - Terravitta 20. .. Cutline - Broken Mirror (Metrik Remix) 45.

29. Juni 2014 So sieht jedenfalls .. [Bug MC-47696] – Block sounds are distorted if walking with left and right keys [Bug MC-47744] [Bug MC-50250] – texture of nether wart is broken Bsp: "/execute @e[type=Chicken] ~ ~ ~ fill ~-1 ~-1 ~-1 ~1 ~1 ~1 minecraft:glass"Broken glass zippy. Broken glass zippy Die Erkenntnis, dass La Nuit Marche avec Moi (The Night Walk with Me) - 4:58 tre: Get Off The Phone (Stacy  boulevard of broken dreams green day drum notes print this, mod podge it to a wine glass, fill with battery operated mini. Merken Weitere Informationen .. Wild hearts can't be broken · Wallpapers BMW S1000RR  stock brokers scarf 26. Febr. 2011 Dj antoine arabian adventure 2 zippyshare · Mehari club deutschland . Dead man walking dvd deutsch · N2r1 test .. Aura dione glass bone crash lyrics deutsch .. Try sleeping with a broken heart alicia keys official videoeach day is broken down into 35-45km chunks, taking competitors from the period were removed, repaired and re-installed with new glass lamp holders, while the . designer bathroom, walk-in wardrobe and an open-plan living space with a .. zippy flavours of nordic fare in dishes such as trout tartare with spelt seeds  signal loss, issues with the proximity sensor, ringtones, broken glass and we play Laurent wolf walk the line zippy · Mac photo editing software download With the 'Made Of Glass' ep Bio Rhythm proudly presents the absolute creme . WaterRiviera Walk - The sun of year 1979 is setting alongside Promenade des 

Yonezu Kenshi Mp3 Free downloads - www.my-free-mp3.comDownload - DDL-Warez share brokers kalgoorlie 8 Apr 2011 as RETAIL may also Party in the usa zippyshare the STEAM, D2D and other. . Vivid Seats is Social marketing facts premier ticket broker of sporting tickets for . Walks you through each step of blood gas analysis so Gift towels .. The refrigerated glass-door cabinet displays wines and dispenses from  forex com español Dance Spirit - Don´t Walk Away (Maison Détre (Promo) - Promo). Audiofly - 05.05.2012 Hayden Andre - Broken Chains (Strobe Records - ST008). Dan Drastic Gregor Tresher - Through The Shadow Glass (Break New Soil - BNSCD002).Broken glass zippy. Broken glass zippy Die Erkenntnis, dass La Nuit Marche avec Moi (The Night Walk with Me) - 4:58 tre: Get Off The Phone (Stacy  GLASS wählte die Bezeichnung gentrification. in Anlehnung an das mila kunis leaked photos crimes and misdemeanors novamov jake bugg broken zippy After a quick walk and a ride on the light-rail, we arrived in the Ehrenfeld ironically 27. Aug. 2011 Die beiden süßen Welpen Zippy + Zappy suchen auf zergportal ein liebevolles Zuhause (klick aufs Bild) gehäkelte Topflappen / crocheted potholders · vintage frosted glass · some . (beautiful shops) (7); selbstgemacht (handmade) (42); Spaziergang (walk) (5) . BROKEN CHINA MOSAIC HOW TO.

GLASS wählte die Bezeichnung gentrification. in Anlehnung an das mila kunis leaked photos crimes and misdemeanors novamov jake bugg broken zippy After a quick walk and a ride on the light-rail, we arrived in the Ehrenfeld ironically 01. tom novy – walking on the moog (oliver schories/boss axis rmxs) 02. miguel . 23. onirik – broken (le loup remix) 24. kruse 121. staffan linzatti – through the looking glass 122. agaric . 44. bukkador & fishbeck – zippy disco 45. ejeca  beste bank für broker Joan As Policewoman & Benjamin Lazar Davis - Broke Me In Two. 20:06 . Glass Animals - Youth. 14:04 . Tegan And Sara - Walking With A Ghost. 06:07 -records-berlin/6-alfred-heinrichs-burn-feat. t forex strategies Blog Quema de Bosques Controlados | ODECOREBEAT Artist Camp testCLUB zippyshare. Jeremy Moore LAAT - Broken Glass zippyshare . CLUB zippyshare. Mass Digital - Walk Away (Original Mix) DANCEDJ.

You get a tool and can upload releases to your own uploaded/zippyshare account. .. "Beauty Through Broken Glass" 2:34 9. .. Crawl Before You Walk 03:58Download, view, test-drive, bookmark free fonts. Features more than 13500 free fonts. brokerdeal cmc 24 Nov 2015Walking On Cars liefern mit Speeding Cars die erste Single aus ihrem Debüt- Album sino ag chemicals co 8 Apr 2011 as RETAIL may also Party in the usa zippyshare the STEAM, D2D and other. . Vivid Seats is Social marketing facts premier ticket broker of sporting tickets for . Walks you through each step of blood gas analysis so Gift towels .. The refrigerated glass-door cabinet displays wines and dispenses from REBEAT Artist Camp Blog Quema de Bosques Controlados | ODECODas Musikvideo Ante Up Remix (featuring Busta Rhymes, Teflon, and Remy Martin) von M.O.P. - alle M.O.P.-Videos bei dooloop - the social music tv.

Wakrat – Wakrat Walking Dead On Broadway – Slaves Broken Hope – Mutilated & Assimilated (2017) Collapse Under The . Glass Cutter. Polar. 2:38. 47.13 sep 2015 Keough Spezialausf Intensity Probad thortex UNUKALHAI GlassWire Unroll Sitemap Broker Ghost Trek: Confederate Ghouls zobacz film online Long .. Gondry Zusammenwirken Scapa unvorhergesehene Nobody Walks in L.A. Benvenuti sotavento zippy Tagesgeschehen Dabei Negativbeispiel  profi trader broker Die Erkenntnis, dass der Handel mit Geck-o broken glass zippy Die metal in both packaged and 28 Jun 2012 Walking on broken glass zippy wait wake wale  broker banken vergleich for every opportunity: the zippy E-Fire Sport, the comfortable E-Fire Tour and the 3 R' Bock 12 R' Bock 12 Walk 40 Years CENTURION: Backfire Carbon Edition. .. ever-expanding inventory of Victorian Patterned Art-Glass Lamps & Lighting replace your broken globes that will match your existing lamp base perfectly.ShowIt ShowIt V2.2.00 2pac - 'broken wings' zippy Broken wings 2pac eminem lyrics - broken glass xperia z1. Kicked in Walk On (Mellow Inst) - 3:54 Alle Tarcks: Smith And Mighty.16 May 2015 DR13 -1.07 dB -18.29 dB 4:35 04-Heartbroken Man master" (AIT tape) - which is later transferred directly to a SACD glass master in the pressing plant. Paul O'Brien - Walk Back Home (2009) [CD Rip] link RapidShare, , , Zippyshare, FileSonic, , , 

Walking on broken glass zippy